#TITLE:Love Letter;
#SUBTITLE:Expi3nze;
#ARTIST:After School (ft. Ara, Hye Rim, Jung Hyun, Minhyun, Dongho);
#TITLETRANSLIT:;
#SUBTITLETRANSLIT:;
#ARTISTTRANSLIT:;
#CREDIT:;
#BANNER:bn.png;
#BACKGROUND:bg.png;
#LYRICSPATH:;
#CDTITLE:cdtitle.png;
#MUSIC:Love Letter.mp3;
#OFFSET:0.000;
#SAMPLESTART:100.000;
#SAMPLELENGTH:12.000;
#SELECTABLE:YES;
#BPMS:0.000=114.003,1.000=57.000,17.000=114.003,18.000=228.005,20.000=114.003,21.000=113.998,22.000=114.003,23.000=228.005,25.000=114.003,26.000=113.998,27.000=114.003,28.000=228.005,30.000=114.003,31.000=228.005,33.000=114.003,34.000=228.005,36.000=114.003,37.000=113.998,38.000=114.003,39.000=228.005,41.000=114.003,42.000=113.998,43.000=114.003,44.000=228.005,46.000=114.003,47.000=113.998,48.000=114.003,49.000=228.005,51.000=114.003,52.000=228.005,54.000=114.003,55.000=228.005,57.000=114.003,58.000=57.006,58.167=228.025,58.500=57.006,58.667=228.025,59.000=114.003,60.000=113.998,61.000=114.003,62.000=113.998,63.000=114.003,64.000=113.998,65.000=114.003,66.000=113.998,67.000=114.003,68.000=113.998,69.000=114.003,70.000=113.998,71.000=114.003,72.000=113.998,73.000=114.003,74.000=113.998,76.000=114.003,77.000=113.998,78.000=114.003,79.000=113.998,80.000=114.003,81.000=113.998,82.000=114.003,83.000=113.998,84.000=114.003,85.000=113.998,86.000=114.003,87.000=113.998,88.000=114.003,89.000=113.998,91.000=114.003,92.000=113.998,93.000=114.003,94.000=113.998,95.000=114.003,96.000=113.998,97.000=114.003,98.000=113.998,99.000=114.003,100.000=113.998,101.000=114.003,102.000=113.998,103.000=114.003,104.000=113.998,105.000=114.003,106.000=113.998,108.000=114.003,109.000=113.998,110.000=114.003,111.000=113.998,112.000=114.003,113.000=113.998,114.000=114.003,115.000=113.998,116.000=114.003,117.000=113.998,118.000=114.003,119.000=113.998,120.000=114.003,121.000=113.998,122.000=114.003,123.000=113.998,124.000=114.003,125.000=113.998,127.000=114.003,128.000=113.998,129.000=114.003,130.000=113.998,131.000=114.003,132.000=113.998,133.000=114.003,134.000=113.998,135.000=114.003,136.000=113.998,137.000=114.003,138.000=113.998,139.000=114.003,140.000=113.998,141.000=114.003,142.000=113.998,143.000=114.003,144.000=113.998,146.000=114.003,147.000=113.998,148.000=114.003,149.000=113.998,150.000=114.003,151.000=113.998,152.000=114.003,153.000=113.998,154.000=114.003,155.000=57.000,168.000=56.999,169.000=57.000,171.000=114.003,172.000=113.998,173.000=114.003,174.000=113.998,175.000=114.003,176.000=113.998,177.000=114.003,178.000=113.998,180.000=114.003,181.000=113.998,182.000=114.003,183.000=113.998,184.000=114.003,185.000=113.998,186.000=114.003,187.000=113.998,188.000=114.003,189.000=113.998,190.000=114.003,191.000=113.998,192.000=114.003,193.000=113.998,194.000=114.003,195.000=113.998,196.000=114.003,197.000=113.998,199.000=114.003,200.000=113.998,201.000=114.003,202.000=113.998,203.000=114.003,204.000=113.998,205.000=114.003,206.000=113.998,207.000=114.003,208.000=113.998,209.000=114.003,210.000=113.998,211.000=114.003,212.000=113.998,213.000=114.003,214.000=113.998,216.000=114.003,217.000=113.998,218.000=114.003,219.000=113.998,220.000=114.003,221.000=113.998,222.000=114.003,223.000=113.998,224.000=114.003,225.000=113.998,226.000=114.003,227.000=113.998,228.000=114.003,229.000=113.998,230.000=114.003,231.000=113.998,232.000=114.003,233.000=113.998,235.000=114.003,236.000=113.998,237.000=114.003,238.000=113.998;
#STOPS:;
#BGCHANGES:;
// cache tags:
#FIRSTBEAT:1.000;
#LASTBEAT:235.000;
#SONGFILENAME:Songs/9you/Love Letter (AF ft. Ara, Hye Rim, Jung Hyun, Minhyun, Dongho)/Love Letter.sm;
#HASMUSIC:1;
#HASBANNER:1;
#MUSICLENGTH:137.877;
// end cache tags

//---------------dance-single - ----------------
#NOTES:
     dance-single:
     :
     Hard:
     22:
     1.000,1.000,1.000,0.319,1.000,806.000,208.000,44.000,0.000,124.000:
0000
0000
0000
0000
1000
0100
0010
0001
0100
1000
0010
0100
1000
0001
0100
0010
,
1000
0100
0010
0001
0100
1000
0010
0100
1000
0010
0001
1000
0100
0010
0100
1000
,
0001
0010
0100
1000
0010
0100
0001
0010
0100
1000
0010
0001
0100
0010
0001
1000
,
0100
1000
0010
0100
1000
0010
0100
1000
0001
0010
0001
0100
0010
0001
0100
1000
,
0010
0100
1000
0010
0101
0010
0100
1000
0010
0100
0010
0001
0100
0010
1000
0100
,
0011
1000
0011
0100
1000
0010
1000
0001
1100
0001
1100
0001
1000
0100
0010
0001
,
0010
0100
1000
0010
1001
0100
0010
0001
1000
0100
0010
1000
0110
1000
0010
0001
,
1000
0100
0010
0001
0010
0100
1000
0010
0001
1000
0011
1000
0011
1000
0100
0010
,
0100
1000
0001
0010
1001
0100
1001
0010
0100
1000
0010
0001
1000
0100
0010
1000
,
0011
0100
1000
0010
0001
0100
0010
0001
1100
0010
0100
1000
0001
0010
0100
1000
,
0100
0010
0001
0100
1010
0100
0011
0100
1000
0001
0010
0100
1001
0010
1001
0100
,
1001
0100
0010
0001
0010
0100
1000
0010
1001
0100
1000
0010
0001
1000
0100
1000
,
0011
1000
0100
0010
1001
0100
0010
0001
1000
0100
1000
0010
0101
0010
1000
0010
,
0101
0010
0001
1000
0100
0010
0100
1000
0011
0100
0011
1000
0100
0010
0001
0010
,
0100
1000
0001
0100
1001
0010
0100
1000
0010
0000
0111
0000
0111
0000
1000
0010
,
1100
1000
0010
0001
1100
0000
0001
0001
0011
0100
1001
0000
1100
0001
0011
0000
,
0111
1000
0010
0100
1000
0001
0010
0000
0201
0000
0011
0001
0321
0000
1100
0000
,
1100
0000
1000
1000
0100
1000
0001
0000
1000
0000
1000
0000
1130
0001
1100
0001
,
1110
0001
1000
0100
1010
0100
0010
1000
1100
0010
1000
1000
1102
0000
1000
0010
,
1100
0000
1000
1000
0100
1000
0010
0100
1000
0010
1100
0000
2103
0001
0101
0000
,
0101
0000
0001
0001
0010
0100
0001
0001
0110
0000
0100
0010
3201
0000
0010
0000
,
1010
0000
1000
1000
0001
1000
1000
0000
1010
0000
1010
0000
0311
1000
1010
0000
,
1110
0000
0011
0110
1100
0000
1010
0000
1110
0001
1100
1100
0001
0000
1000
0010
,
1100
0001
0010
0100
1001
0100
0010
0001
1100
0001
1100
0001
1100
0001
0011
0100
,
1001
0010
0001
0000
2001
0001
0010
0100
3021
0000
1001
1000
1230
0000
0001
0001
,
1001
0000
0001
0010
0001
0001
1000
1000
1001
0000
1001
0000
0301
1000
1010
0000
,
1010
0000
0010
0100
1000
0000
0010
0000
2110
0000
0110
0100
3012
0000
1000
0000
,
1100
0000
1000
1000
0100
0000
1000
0000
1010
0000
1010
0000
2103
0000
0101
0000
,
0101
0000
0100
0010
0001
0000
0100
0000
0110
0000
0100
0001
3011
0000
1000
0010
,
1100
0000
0101
0000
0101
0000
0001
0000
1100
0001
0011
0100
1001
0001
1100
0000
,
0110
0000
0001
0001
0100
0001
0001
0100
0011
1000
1000
0000
2012
0010
0103
0010
,
0211
0001
0310
0100
0120
0001
0231
0000
0310
0000
0102
0010
0113
0100
0100
0000
,
0011
0001
0100
0010
0100
0001
0010
0100
0101
0001
0010
0100
3221
0001
0301
1000
,
1102
0100
1003
0001
0201
1000
1302
0100
1103
0000
1200
1000
0301
1000
1100
0000
,
1100
0000
1000
0100
1000
0100
1000
0100
1100
1000
1000
0000
2132
0100
3010
0100
,
1200
0010
0310
0100
1020
0000
0230
1000
1310
0000
0210
0000
2313
0010
0101
0000
,
0111
0000
0001
0010
0101
0010
0100
0001
0110
0001
0100
0010
3102
1000
0010
0100
,
1010
0100
1000
0010
1100
0010
1000
0100
1010
0100
1000
0000
1103
0000
0001
0001
,
0110
0001
1000
1000
1100
0010
1000
0000
0011
1000
0011
0100
1000
0001
0010
0001
,
0100
1000
0010
0100
1000
0001
0100
0010
1000
0100
0010
0001
0100
1000
0010
0100
,
1000
0010
0001
1000
0100
0010
0100
1000
0001
0010
0100
1000
0010
0100
0001
0010
,
0100
1000
0010
0001
0100
0010
0001
1000
0100
1000
0010
0100
1000
0010
0100
1000
,
0001
0010
0001
0100
0010
0001
1000
0100
0010
0100
1000
0000
2111
0000
0200
0010
,
0021
0300
0031
0012
0123
0230
0301
0010
0101
0010
0100
0000
3011
1000
1010
0000
,
1010
0000
0101
0000
0101
0000
1000
1000
1100
0010
1000
0000
1112
0000
2000
0100
,
0210
3020
1330
2100
3210
0320
1030
0100
1010
0100
1000
0010
1103
0001
0011
0000
,
1010
0000
0001
0010
1001
0010
0001
1000
0011
1000
0011
1000
0011
1000
0100
0010
,
1001
0100
1000
0010
0101
0010
1000
0100
1010
0100
0010
1000
0110
1000
0110
1000
,
0011
1000
0100
0010
1001
0100
1000
0010
0101
0010
1001
0100
0011
0100
1000
0010
,
1100
0010
0001
0100
1010
0100
0001
0010
1100
0010
1001
0100
0011
0100
1001
0010
,
1100
0001
1100
1100
0001
1100
1100
0001
1100
0001
0100
1000
0011
0000
0000
0000
,
1110
0000
0010
0100
1000
0100
0010
0000
1110
0000
1000
1000
0010
0100
0100
0000
,
1110
0000
0010
0100
1000
0000
0001
0001
1100
0000
0010
0000
0010
0010
0100
0000
,
0111
0000
0010
0100
0010
0100
1000
0001
0010
1000
1100
0000
1100
1000
0001
0000
,
0111
0000
0001
0010
0100
0000
0001
0001
1100
0000
1100
0001
0001
0000
1000
0000
,
1110
0000
1000
0100
0010
0000
1010
0000
1010
0000
0101
0000
0101
0001
0100
0000
,
0111
0000
0100
0100
0010
0000
0100
0000
0111
0000
0010
0000
0010
0010
1000
0000
,
1110
0000
1000
1000
0100
0000
1000
0000
1100
0000
1100
0001
0001
0010
0100
0000
,
1110
0000
0001
0001
0010
0000
0011
0000
0110
1100
0001
0000
0100
0000
0000
0000
,
0000
0000
0000
0000
,
0000
0000
0000
0000
;
